Dont Miss To Get Latest Movies and Tv Show Direct In Your Inbox Enter your email address:  

Bhalobaslei Ghor Bandha Jay Na – Bangla Movie 720p

June 12, 2019 Bangladeshi Movies

Changed Domain Please Use Our New Domain http://7starhd.works 

Download Here                   Watch Now

Bhalobaslei Ghor Bandha Jay Na – Bangla Movie 720p.mp4

IMDB Link

General
Complete name : Bhalobaslei Ghor Bandha Jay Na – Bangla Movie.mp4
Format : MPEG-4
Format profile : Base Media / Version 2
Codec ID : mp42 (mp42)
File size : 730 MiB
Duration : 3 h 3 min
Overall bit rate mode : Constant
Overall bit rate : 555 kb/s
Codirector : codirector
Production studio : studio

Video
Format : MPEG-4 Visual
Format settings, BVOP : Yes
Format settings, QPel : No
Format settings, GMC : No warppoints
Format settings, Matrix : Default (H.263)
Codec ID : 20
Duration : 3 h 3 min
Bit rate mode : Constant
Bit rate : 384 kb/s
Width : 500 pixels
Height : 240 pixels
Display aspect ratio : 2.083
Frame rate mode : Constant
Frame rate : 25.000 FPS
Color space : YUV
Bit depth : 8 bits
Scan type : Progressive
Compression mode : Lossy
Bits/(Pixel*Frame) : 0.128
Stream size : 505 MiB (69%)

Audio
Format : AAC
Format/Info : Advanced Audio Codec
Format profile : LC
Codec ID : 40
Duration : 3 h 3 min
Bit rate mode : Constant
Bit rate : 166 kb/s
Channel(s) : 2 channels
Channel positions : Front: L R
Sampling rate : 44.1 kHz
Frame rate : 43.066 FPS (1024 SPF)
Compression mode : Lossy
Stream size : 219 MiB (30%)
Title : Stereo
Language : English








indishare Link

TheFilesLocker Link

OpenLoad Link

UserscLoud Link

ClicknupLoad Link

BDupload Link

UpPom Link

UploadBuzz Link

Note: If you Can’t See the links Please Use VPN or any proxy thanks

Download Here                   Watch Now
How to Download ? ]

Comments